The Foreigner 2017 720p HC HDRip x264 Dual Audio [Hindi (Cleaned) - English]

seeders: 661     leechers: 206     updated: 23 hours ago
Uploaded by MovieFreak2521 , was 1 week ago, day 30/11/2017 14:28:26
Downloaded 239 times, 0.98 GB - 1 file , filmes > Outros


Warning! Use a VPN When Downloading Torrents.


Your IP Address is 5.150.254.188 Location is SE.
Hide your IP ADDRESS with a VPN!

Get VPN App Mac Now!


    The Foreigner 2017 720p HC HDRip x264 Dual Audio [Hindi (Cleaned) - English] ( 0.98 GB )
    The Foreigner 2017 720p HC HDRip x264 Dual Audio [Hindi (Cleaned) - English].mkv0.98 GB

    By the way you can play this film on Mac with Elmedia Player




    General
    Format                                   : Matroska
    Format version                           : Version 4 / Version 2
    File size                                : 1 007 MiB
    Duration                                 : 1 h 52 min
    Overall bit rate                         : 1 254 kb/s

    Video
    ID                                       : 1
    Format                                   : AVC
    Format/Info                              : Advanced Video Codec
    Format profile                           : [email protected]
    Format settings                          : CABAC / 8 Ref Frames
    Format settings, CABAC                   : Yes
    Format settings, RefFrames               : 8 frames
    Codec ID                                 : V_MPEG4/ISO/AVC
    Duration                                 : 1 h 52 min
    Bit rate                                 : 1 060 kb/s
    Width                                    : 1 280 pixels
    Height                                   : 528 pixels
    Display aspect ratio                     : 2.40:1
    Frame rate mode                          : Constant
    Frame rate                               : 24.000 FPS
    Color space                              : YUV
    Chroma subsampling                       : 4:2:0
    Bit depth                                : 8 bits
    Scan type                                : Progressive
    Bits/(Pixel*Frame)                       : 0.065
    Stream size                              : 851 MiB (84%)
    Writing library                          : x264 core 148 r2708 86b7198
    Default                                  : Yes
    Forced                                   : No
    Color range                              : Limited
    Color primaries                          : BT.709
    Transfer characteristics                 : BT.709
    Matrix coefficients                      : BT.709

    Audio #1
    ID                                       : 2
    Format                                   : AAC
    Format/Info                              : Advanced Audio Codec
    Format profile                           : LC
    Codec ID                                 : A_AAC-2
    Duration                                 : 1 h 52 min
    Bit rate                                 : 128 kb/s
    Channel(s)                               : 2 channels
    Channel positions                        : Front: L R
    Sampling rate                            : 44.1 kHz
    Frame rate                               : 43.066 FPS (1024 SPF)
    Compression mode                         : Lossy
    Stream size                              : 103 MiB (10%)
    Language                                 : Hindi
    Default                                  : Yes
    Forced                                   : No

    Audio #2
    ID                                       : 3
    Format                                   : AAC
    Format/Info                              : Advanced Audio Codec
    Format profile                           : HE-AAC / LC
    Format settings                          : Explicit
    Codec ID                                 : A_AAC-2
    Duration                                 : 1 h 52 min
    Bit rate                                 : 64.0 kb/s
    Channel(s)                               : 2 channels
    Channel positions                        : Front: L R
    Sampling rate                            : 48.0 kHz / 24.0 kHz
    Frame rate                               : 23.438 FPS (1024 SPF)
    Compression mode                         : Lossy
    Delay relative to video                  : 31 ms
    Stream size                              : 51.4 MiB (5%)
    Language                                 : English
    Default                                  : No
    Forced                                   : No
















    SIMILAR

    TORRENT   UPLOADEDSIZESEEDS LEECHS
    The Foreigner 2017 1080p HC HDRip x264 - NextBit 1 week 2.05 GB41 15
    The.Foreigner.2017.HC.HDRip.XviD.AC3-EVO[EtMovies] 1 week 1.40 GB65 15
    The.Foreigner.2017.HC.HDRip.XviD.AC3-EVO 1 week 1.40 GB37 6
    The.Foreigner.2017.HC.HDRip.XviD.AC3-EVO 1 week 1.40 GB1 057 314
    The.Foreigner.2017.1080p.HC.HDRip.X264.AC3-EVO[EtHD] 1 week 3.58 GB2 690 1 477
    The.Foreigner.2017.720p.HC.HDRip.X264.AC3-EVO[EtHD] 1 week 2.62 GB42 1
    The Foreigner 2017 720p HC-TC x264 - NextBit 3 weeks 1.57 GB250 115

    Torrent Hash: A24707823AEFBF96B4627BE6EBBFF1DE845CA48E


    Num Trackers: 6 trackers




    TRACKER'S LIST COMPATIBLE WITH BITTORRENT CLIENT


    TrackerSeedersLeechersCompletedUpdated
    udp://tracker.coppersurfer.tk:6969/announce 661 206 0 4 days
    udp://tracker.leechers-paradise.org:6969/announce 323 75 0 4 days
    http://opentrackr.org/announce 293 118 0 4 days
    udp://tracker.zer0day.to:1337/announce 288 71 0 4 days
    http://p4p.arenabg.com:1337/announce 213 77 0 4 days
    udp://tracker.mg64.net:6969/announce 92 34 0 4 days

    No comments yet.