Renegades.2017.720p.WEB-DL.AAC.LLG

seeders: 12     leechers: 8     updated: 32 mins ago
Uploaded by LifeLongg1201 , was 1 week ago, day 08/01/2018 02:40:22
Downloaded 40 times, 734.67 MB - 2 files , filmes > WebDL


Warning! Use a VPN When Downloading Torrents.


Your IP Address is 2001:9b0:10:2104:216:3eff:fe8a:362c Location is SE.
Hide your IP ADDRESS with a VPN!

Get VPN App Mac Now!


    Renegades.2017.720p.WEB-DL.AAC.LLG ( 734.67 MB )
    Sample.mp46.28 MB
    Renegades.2017.720p.WEB-DL.AAC.LLG.mp4728.39 MB

    By the way you can play this film on Mac with Elmedia Player

    ******************************Thumbnail:**********************



    ******************************Screenshots:********************

    Screenshot 1


    Screenshot 2


    Screenshot 3


    Screenshot 4


    Screenshot 5

    **************************************************************

    Complete name                            : Renegades.2017.720p.WEB-DL.AAC.LLG
    Format                                   : MPEG-4
    Format profile                           : Base Media
    Codec ID                                 : isom (isom/iso2/avc1/mp41)
    File size                                : 728 MiB
    Duration                                 : 1 h 45 min
    Overall bit rate                         : 964 kb/s
    Movie name                               : Renegades.2017.720p.WEB-DL.850MB.MkvCage
    Writing application                      : Lavf57.56.101

    Video
    ID                                       : 1
    Format                                   : AVC
    Format/Info                              : Advanced Video Codec
    Format profile                           : [email protected]
    Format settings                          : CABAC / 4 Ref Frames
    Format settings, CABAC                   : Yes
    Format settings, RefFrames               : 4 frames
    Codec ID                                 : avc1
    Codec ID/Info                            : Advanced Video Coding
    Duration                                 : 1 h 45 min
    Bit rate                                 : 900 kb/s
    Width                                    : 1 280 pixels
    Height                                   : 534 pixels
    Display aspect ratio                     : 2.40:1
    Frame rate mode                          : Constant
    Frame rate                               : 23.976 (23976/1000) FPS
    Color space                              : YUV
    Chroma subsampling                       : 4:2:0
    Bit depth                                : 8 bits
    Scan type                                : Progressive
    Bits/(Pixel*Frame)                       : 0.055
    Stream size                              : 675 MiB (93%)

    Audio
    ID                                       : 2
    Format                                   : AAC
    Format/Info                              : Advanced Audio Codec
    Format profile                           : LC
    Codec ID                                 : mp4a-40-2
    Duration                                 : 1 h 45 min
    Bit rate mode                            : Constant
    Bit rate                                 : 64.6 kb/s
    Channel(s)                               : 2 channels
    Channel positions                        : Front: L R
    Sampling rate                            : 48.0 kHz
    Frame rate                               : 46.875 FPS (1024 SPF)
    Compression mode                         : Lossy
    Stream size                              : 48.8 MiB (7%)
    Language                                 : English
    Default                                  : Yes
    Alternate group                          : 1



    SIMILAR

    TORRENT   UPLOADEDSIZESEEDS LEECHS
    Renegades 2017.HDRip.XviD.AC3-EVO[EtMovies] by EtHD 1 week 1.45 GB62 24
    Renegades 2017.720p.WEB-DL.X264.AC3-EVO[EtHD] by EtHD 1 week 2.52 GB285 166
    Renegades 2017.HDRip.XviD.AC3-EVO by makintos13 1 week 1.45 GB142 81
    Renegades 2017.HDRip.XviD.AC3-EVO by xxxlavalxxx 1 week 1.45 GB1 549 651
    Renegades 2017 1080p WEB-DL x264 AAC-Hon3y by honey8ee 1 week 2.08 GB134 130
    Renegades 2017 1080p WEB-DL DD 5.1 x264 by MovieFreak 1 week 1.65 GB152 124
    18+ Renegades 2017 Movies HDRip x264 AAC with Sample ☻rDX☻ by basicssom 1 week 711.05 MB33 16

    Torrent Hash: 3CE7214CB1CB88635857EF7214540B69009FBAE7


    Num Trackers: 15 trackers




    TRACKER'S LIST COMPATIBLE WITH BITTORRENT CLIENT


    TrackerSeedersLeechersCompletedUpdated
    udp://tracker.leechers-paradise.org:6969/announce 12 8 0 1 week
    udp://tracker.zer0day.to:1337/announce 11 7 0 1 week
    http://opentrackr.org/announce 9 15 0 1 week
    udp://tracker.zer0day.to:1337 5 4 0 32 mins
    udp://eddie4.nl:6969 5 4 0 32 mins
    udp://tracker.coppersurfer.tk:6969/announce 4 4 0 1 week
    udp://tracker.mg64.net:6969/announce 3 3 0 1 week
    udp://tracker.leechers-paradise.org:6969 2 11 0 32 mins
    udp://tracker.opentrackr.org:1337 1 8 0 32 mins
    udp://9.rarbg.to:2710 1 6 0 32 mins
    udp://p4p.arenabg.ch:1337 1 6 0 32 mins
    udp://public.popcorn-tracker.org:6969 0 1 0 32 mins
    udp://tracker.coppersurfer.tk:6969 0 1 0 32 mins
    http://tracker.mg64.net:6881/announce 0 0 0 32 mins
    http://mgtracker.org:2710/announce 0 0 0 32 mins

    No comments yet.